Скачать через торрент Универ. Новая общага Сезон: 14 Фильм бесплатно в хорошем качестве torrent

Скачивайте на UnionPeer.org фильмы через торрент без регистрации. Новинки кино в хорошем качестве через торрент. На UnionPeer.org можно скачать через торрент фильмы 2014 и 2015 годов. Самые новые фильмы.

Скачать торрент Универ. Новая общага Сезон: 14 бесплатно через .torrent фильм мультфильм сериал

Статистика раздачи
Размер:  5.35 GB   |    Зарегистрирован:  4 дня   |    .torrent скачан:  322 раза   |   
Раздают:  1  
   
загрузка...
 
Автор Сообщение

Galfimbul

avatar Galfimbul


Универ. Новая общага

Год выпуска: 2018
Производство: "Комеди Клаб продакшн"
Жанр: комедия
Продолжительность: ~00:24:00 серия
Субтитры: нет

Режиссёр: Константин Колесов

В ролях: Арарат Кещян, Александр Стекольников, Станислав Ярушин, Анна Хилькевич, Константин Шелягин, Григорий Кокоткин, Юлия Франц, Екатерина Шумакова, Сергей Пиоро, Влад Соколовский
Описание: «Универ» - больше, чем просто сериал. «Универ» - проверенный друг с отличным чувством юмора, сотнями готовых лайфхаков на все случаи жизни и хорошей долей самоиронии. За эти 10 лет некоторые из актрис сериала, снявшись обнаженными для мужских журналов, стали депутатами в Государственной думе, женами завидных иностранных миллионеров и самыми популярными инстаграмерами. Многие актеры обзавелись прекрасным потомством, а одна сериальная пара даже вдохновила авторов на создание отдельного спиноффа. Но главные герои нового сезона по-прежнему в отличной форме: Маша снимется в проекте 18+, Майкл получит крупное наследство, Антон найдет замену Кристине, а Валя поверит в себя и почувствует свою мужскую силу. Оставаться молодыми и дерзкими парней заставит еще один весомый аргумент: в общагу заселятся две новенькие героини – сестры-двойняшки Ника и Вика.

Реклама: Нет.



Sample

Качество: WEBRip - Files-x
Формат: AVI
Видео кодек: XviD
Аудио кодек: AC3
Видео: 720x400 (1.80:1), 25 fps, XviD build 73 ~1500 kbps avg, 0.208 bit/pixel
Аудио: 44.1 kHz, AC3 Dolby Digital, 2/0 (L,R) ch, ~ 192 kbps
Раздача ведётся путём добавления новых серий, при каждом добавлении создаётся новый торрент. Чтобы начать докачку новой серии, пользователям необходимо сделать следующее:

- Остановить скачивание.
- Удалить старый торрент у себя из клиента (старые серии удалять не надо).
- Скачать новый торрент и запустить его у себя в клиенте вместо старого, при этом указать клиенту путь в старую папку куда и должно происходить скачивание новых серий.

Ваш клиент при этом должен произвести хеширование (проверку) старой папки (если не производит сам - помогите ему сделать это), и будет докачивать только те серии которых у вас ещё нет. Старые серии при этом не удаляются, а продолжают раздаваться!
Если вы уже удалили старые серии, то предотвратить повторную закачку старых серий можно, отжав галочку в соответствующих местах при запуске нового торрента. По возможности, желательно не удалять старые серии как можно дольше, чтобы релизер не столько продолжал раздавать старые серии, а смог сконцентрироваться на новых.
General
Complete name : D:\Univer.14.2018.WEB-DLRip\Univer.s14.01.WEB-DLRip.avi
Format : AVI
Format/Info : Audio Video Interleave
File size : 265 MiB
Duration : 22mn 40s
Overall bit rate : 1 638 Kbps
Writing application : VirtualDubMod 1.5.10.2 (build 2540/release)
Writing library : VirtualDubMod build 2540/release

Video
ID : 0
Format : MPEG-4 Visual
Format profile : Advanced [email protected]
Format settings, BVOP : 2
Format settings, QPel : No
Format settings, GMC : No warppoints
Format settings, Matrix : Default (MPEG)
Codec ID : XVID
Codec ID/Hint : XviD
Duration : 22mn 40s
Bit rate : 1 500 Kbps
Width : 720 pixels
Height : 400 pixels
Display aspect ratio : 16:9
Frame rate : 25.000 fps
Color space : YUV
Chroma subsampling : 4:2:0
Bit depth : 8 bits
Scan type : Progressive
Compression mode : Lossy
Bits/(Pixel*Frame) : 0.208
Stream size : 243 MiB (92%)
Writing library : XviD 1.2.1 (UTC 2008-12-04)

Audio
ID : 1
Format : AC-3
Format/Info : Audio Coding 3
Mode extension : CM (complete main)
Format settings, Endianness : Big
Codec ID : 2000
Duration : 22mn 39s
Bit rate mode : Constant
Bit rate : 128 Kbps
Channel count : 2 channels
Channel positions : Front: L R
Sampling rate : 44.1 KHz
Bit depth : 16 bits
Compression mode : Lossy
Stream size : 20.8 MiB (8%)
Alignment : Split accross interleaves
Interleave, duration : 40 ms (1.00 video frame)
Interleave, preload duration : 500 ms


Трекер:  [ 21-Апр-2018 09:34 ]

  

Скачать .torrent

Размер .torrent файла 28 KB


Размер: 5.35 GB
Хэш (hash) релиза: 386395ccdfd1684c8a14a005cf96c60974c32fac
Подписка на обновления:

bot

Раздача обновлена!
Перекачайте торрент-файл.

bot

Раздача обновлена!
Перекачайте торрент-файл.

bot

Раздача обновлена!
Перекачайте торрент-файл.

bot

Раздача обновлена!
Перекачайте торрент-файл.

bot

Раздача обновлена!
Перекачайте торрент-файл.

bot

Раздача обновлена!
Перекачайте торрент-файл.

bot

Раздача обновлена!
Перекачайте торрент-файл.

bot

Раздача обновлена!
Перекачайте торрент-файл.

bot

Раздача обновлена!
Перекачайте торрент-файл.

bot

Раздача обновлена!
Перекачайте торрент-файл.

bot

Раздача обновлена!
Перекачайте торрент-файл.

Хотите добавить комментарий к записи скачать торрент Универ. Новая общага Сезон: 14

!Обратная связь